Орлы юриспруденции / Адвокаты экстра класса / Legal eagles (1986) WEBRip 1080p | P2, A

Ответить на тему
 
Автор Сообщение

Tlord ®

Пол: Мужской

Стаж: 1 год 9 месяца

Сообщений: 7954

Создавать темы 12-Фев-2017 14:36

[Цитировать]

Информация о фильме
Название: Орлы юриспруденции (Адвокаты экстра класса)
Оригинальное название: Legal eagles
Год выхода: 1986
Жанр: мелодрама, комедия, криминал
Режиссер: Айвэн Райтман / Ivan Reitman
В ролях: Роберт Редфорд, Дебра Уингер, Дэрил Ханна, Брайан Деннехай, Теренс Стамп, Стивен Хилл, Дэвид Кленнон, Джон МакМартин, Дженнифер Дандас, Роско Ли Браун, Кристин Барански
О фильме: Действие фильма вращается вокруг Челси Дердон, дочери известного художника. В восьмилетнем возрасте она стала свидетельницей ужасного зрелища. в огне пожара сгорел ее отец и его картины. Двадцать лет спустя Челси арестовывают за то, что она выкрала картину своего отца у торговца произведениями искусства...

Страна: США
Студия: Universal Pictures, Mirage Enterprises
Продолжительность: 01:56:22
Перевод #1: Профессиональный (двухголосый закадровый) НТВ+
Перевод #2: Авторский (одноголосый, закадровый) Алексей Михалев
Cубтитры : Английский
Контейнер: MKV
Качество: WEBRip 1080p
Видео: MPEG-4 AVC, High@L4, 14.4 Mb/s, 1 920 x 1 080, 23.976 fps
Аудио 1 : Русский (AC-3, 2ch, 192 kb/s, 48.0 KHz) DVO НТВ+
Аудио 2 : Русский (AC-3, 2ch, 192 kb/s, 48.0 KHz) AVO А.Михалев
Аудио 3 : Английский (E-AC-3, 2ch, 224 kb/s, 48.0 KHz)
Субтитры : English SRT
Навигация по главам: есть (En)
Глобальные тэги: есть

MI

Общее
Уникальный идентификатор : 190556943427199297609926148629715051437 (0x8F5BEEAE35C75B1584B8EEFEEEE563AD)
Полное имя : E:Legal eagles (1986).mkv
Формат : Matroska
Версия формата : Version 4 / Version 2
Размер файла : 12,2 Гбайт
Продолжительность : 1 ч. 56 м.
Режим общего битрейта : Переменный
Общий поток : 15,0 Мбит/сек
Название фильма : Орлы юрис
Тип содержимого : Movie
Описание : «Том Логан имеет права партнера, который положил собаку на свидетеля.Клиент, который не может войти в комнату без преступления. И случай, который может оказаться в убийстве году. Его ».
Дата выпуска : 1986-06-18
Дата кодирования : UTC 2017-02-12 10:25:53
Программа кодирования : mkvmerge v9.8.0 ('Kuglblids') 64bit
Библиотека кодирования : libebml v1.3.4 + libmatroska v1.4.5
Обложка : Yes
Attachments : cover.jpg
ACTOR : Robert Redford, Debra Winger, Daryl Hannah, Brian Dennehy, Terence Stamp, Steven Hill, David Clennon, John McMartin, Jennifer Dundas, Roscoe Lee Browne, Christine Baranski, Sara Botsford, David Hart, James Hurdle, Gary Howard Klar, Christian Clemenso...
ARTIST : Robert Redford, Debra Winger, Daryl Hannah, Brian Dennehy, Terence Stamp, Steven Hill, David Clennon, John McMartin, Jennifer Dundas, Roscoe Lee Browne, Christine Baranski, Sara Botsford, David Hart, James Hurdle, Gary Howard Klar, Christian Clemenso...
DIRECTOR : Ivan Reitman
GENRE : комедия, криминал, драма, мелодрама, триллер
LAW_RATING : PG
PRODUCER : Ivan Reitman
PRODUCTION_STUDIO : Northern Lights Entertainment
SCREENPLAY_BY : Jim Cash, Jack Epps Jr.
SUMMARY : «Том Логан имеет права партнера, который положил собаку на свидетеля.Клиент, который не может войти в комнату без преступления. И случай, который может оказаться в убийстве году. Его ».
SYNOPSIS : Действие фильма вращается вокруг Челси Дердон, дочери известного художника. В восьмилетнем возрасте она стала свидетельницей ужасного зрелища. в огне пожара сгорел ее отец и его картины. Двадцать лет спустя Челси арестовывают за то, что она выкрала картину своего отца у торговца произведениями искусства. Челси уверена, что это не единственная картина, которая избежала огня. Ее цель — собрать уцелевшие произведения, которые принадлежат ей по праву, как наследнице. Однако благородная цель не оправдывает средства. Челси обвинена в краже; обвинение в суде будет поддерживать неподкупный окружной прокурор Том Логон.
Видео
Идентификатор : 1
Формат : AVC
Формат/Информация : Advanced Video Codec
Профиль формата : High@L4
Параметр CABAC формата : Да
Параметр ReFrames формата : 4 кадра
Идентификатор кодека : V_MPEG4/ISO/AVC
Продолжительность : 1 ч. 56 м.
Вид битрейта : Переменный
Битрейт : 14,4 Мбит/сек
Максимальный битрейт : 15,0 Мбит/сек
Ширина : 1920 пикселей
Высота : 1080 пикселей
Соотношение сторон : 16:9
Режим частоты кадров : Постоянный
Частота кадров : 23,976 (24000/1001) кадра/сек
Цветовое пространство : YUV
Субдискретизация насыщенности : 4:2:0
Битовая глубина : 8 бит
Тип развёртки : Прогрессивная
Бит/(Пиксели*Кадры) : 0.289
Размер потока : 11,7 Гбайт (96%)
Библиотека кодирования : x264 core 148 r2623 d5b2374
Настройки программы : cabac=1 / ref=4 / deblock=1:-1:-1 / analyse=0x3:0x133 / me=umh / subme=9 / psy=1 / psy_rd=1.00:0.15 / mixed_ref=1 / me_range=24 / chroma_me=1 / trellis=2 / 8x8dct=1 / cqm=0 / deadzone=21,11 / fast_pskip=1 / chroma_qp_offset=-3 / threads=34 / lookahead_threads=5 / sliced_threads=0 / nr=150 / decimate=1 / interlaced=0 / bluray_compat=0 / constrained_intra=0 / bframes=8 / b_pyramid=2 / b_adapt=2 / b_bias=0 / direct=3 / weightb=1 / open_gop=0 / weightp=2 / keyint=120 / keyint_min=61 / scenecut=0 / intra_refresh=0 / rc_lookahead=120 / rc=crf / mbtree=1 / crf=18.0 / qcomp=0.60 / qpmin=0 / qpmax=69 / qpstep=4 / vbv_maxrate=15000 / vbv_bufsize=31250 / crf_max=0.0 / nal_hrd=vbr / filler=0 / ip_ratio=1.40 / aq=3:1.00
Default : Да
Forced : Нет
Цветовой диапазон : Limited
Основные цвета : BT.709
Характеристики трансфера : BT.709
Коэффициенты матрицы : BT.709
Аудио #1
Идентификатор : 2
Формат : AC-3
Формат/Информация : Audio Coding 3
Расширение режима : CM (complete main)
Параметр Endianness формата : Big
Идентификатор кодека : A_AC3
Продолжительность : 1 ч. 56 м.
Вид битрейта : Постоянный
Битрейт : 192 Кбит/сек
Каналы : 2 канала
Расположение каналов : Front: L R
Частота : 48,0 КГц
Частота кадров : 31,250 кадров/сек (1536 spf)
Битовая глубина : 16 бит
Метод сжатия : С потерями
Размер потока : 160 Мбайт (1%)
Заголовок : DVO
Язык : Russian
Default : Да
Forced : Нет
Аудио #2
Идентификатор : 3
Формат : AC-3
Формат/Информация : Audio Coding 3
Расширение режима : CM (complete main)
Параметр Endianness формата : Big
Идентификатор кодека : A_AC3
Продолжительность : 1 ч. 56 м.
Вид битрейта : Постоянный
Битрейт : 192 Кбит/сек
Каналы : 2 канала
Расположение каналов : Front: L R
Частота : 48,0 КГц
Частота кадров : 31,250 кадров/сек (1536 spf)
Битовая глубина : 16 бит
Метод сжатия : С потерями
Размер потока : 160 Мбайт (1%)
Заголовок : AVO Алексей Михалев
Язык : Russian
Default : Нет
Forced : Нет
Аудио #3
Идентификатор : 4
Формат : E-AC-3
Формат/Информация : Enhanced Audio Coding 3
Параметр Endianness формата : Big
Идентификатор кодека : A_EAC3
Продолжительность : 1 ч. 56 м.
Вид битрейта : Постоянный
Битрейт : 224 Кбит/сек
Каналы : 2 канала
Расположение каналов : Front: L R
Частота : 48,0 КГц
Частота кадров : 187,500 кадров/сек (256 spf)
Метод сжатия : С потерями
Размер потока : 186 Мбайт (1%)
Язык : English
Default : Нет
Forced : Нет
Текст
Идентификатор : 5
Формат : UTF-8
Идентификатор кодека : S_TEXT/UTF8
Идентификатор кодека/Информация : UTF-8 Plain Text
Продолжительность : 1 ч. 54 м.
Битрейт : 53 бит/сек
Count of elements : 1877
Размер потока : 44,6 Кбайт (0%)
Заголовок : SRT
Язык : English
Default : Нет
Forced : Нет
Меню
00:00:00.000 : en:Chelsea's Birthday
00:05:33.716 : en:18 Years Later
00:09:13.399 : en:In Court
00:14:14.082 : en:The Legal Society
00:18:43.483 : en:Chelsea's Story
00:26:06.811 : en:Insomnia
00:32:06.095 : en:Performance Piece
00:38:03.169 : en:The Stalker
00:41:02.519 : en:The Deardon Case
00:49:22.155 : en:Tailing Taft
01:00:00.475 : en:Chelsea's Anger
01:01:26.521 : en:Sleeping Over
01:13:50.323 : en:Partners
01:20:44.205 : en:Chelsea's Trial
01:28:45.698 : en:Getting The Records
01:34:16.536 : en:The Forrester Connection
01:38:47.647 : en:The Taft Gallery
01:47:27.220 : en:Escape
01:50:25.777 : en:Vintage Chelsea
01:51:50.614 : en:End Titles

Скриншоты

Скачать
[Профиль] [ЛС]
Показать сообщения:    
Ответить на тему

Текущее время: 18-Окт 16:46

Часовой пояс: UTC ± 0



Вы не можете начинать темы
Вы не можете отвечать на сообщения
Вы не можете редактировать свои сообщения
Вы не можете удалять свои сообщения
Вы не можете голосовать в опросах
Вы не можете прикреплять файлы к сообщениям
Вы не можете скачивать файлы