Астерикс и Обеликс в Британии / Astérix et Obélix: Au service de Sa Majesté (2012) BDRip 1080p HEVC | 3D-Video | OU | D

Ответить на тему
 
Автор Сообщение

Tlord ®

Пол: Мужской

Стаж: 1 год 9 месяца

Сообщений: 7946

Создавать темы 12-Фев-2017 14:07

[Цитировать]

Информация о фильме
Название: Астерикс и Обеликс в Британии
Оригинальное название: Astérix et Obélix: Au service de Sa Majesté
Год выхода: 2012
Жанр: комедия, приключения, семейный
Режиссер: Лоран Тирар
В ролях: Жерар Депардье, Эдуард Баэр, Гийом Гальенн, Венсан Лакост, Валери Лемерсье, Фабрис Лукини, Катрин Денев, Шарлотта Лебон, Боли Ланнерс, Дани Бун, Атмен Келиф, Жан Рошфор, Жерар Жюньо, Лука Дзингаретти, Филиппо Тими, Никколо Сенни, Нери Маркоре, Тристан Ульоа
О фильме:
Пятидесятый год до нашей эры. Юлий Цезарь рвется к новым завоеваниям. Во главе своих прославленных легионов он собирается захватить остров, который находится на самом краю света — таинственную страну, именуемую Британией. Войско Цезаря одерживает быструю и безоговорочную победу. Ну… почти безоговорочную: одна крошечная деревушка продолжает яростно обороняться, однако силы на исходе, и королева бриттов Корделия отправляет офицера Красовакса за подмогой в Галлию. Когда к галлам приезжает Красовакс, те снабжают его бочонком своего знаменитого волшебного зелья, а Астерикс и Обеликс отправляются вместе с ним в Британию. Гадорикса они тоже берут с собой, ведь путешествие — отличный способ пополнить образование молодого человека. Но, к сожалению, все идет не так, как задумывалось…

Страна: Франция, Венгрия, Италия, Испания
Студия: Bruxelles Capitale, Cinetotal, Fidélité Films, Film Kairòs, France 2 Cinéma, France 3 Cinéma, France Télévision, Les Editions Albert René, Lucky Red, M6 Films, Morena Films S.L., Octagon Films, Orange Cinéma Séries, Région Wallone, Saint Sébastien Froissart, Wild Bunch
Продолжительность: 01:50:06
Перевод: Дубляж (Blu-ray RUS)
Файл
Кодек: H.265/HEVC
Качество: BDRip 1080p HEVC
Видео: 1920x2160 px, ~10.8 Mb/s (avg), 23,976 fps
Звук: Русский DTS, 1509 kbps, 5.1 ch, 16 bits (DTS-HD MA Core без MLP данных)
3D: Левый ракурс верхний
Семпл

MediaInfo

General
Unique ID : 201724798353273172360540380421616166720 (0x97C2C8708D447DB99EBDD8267321E740)
Complete name : Asterix et Obelix Au service de Sa Majeste (2012) 1080p HEVC 3D-ab.mkv
Format : Matroska
Format version : Version 3 / Version 2
File size : 9.64 GiB
Duration : 1 h 50 min
Overall bit rate : 12.5 Mb/s
Movie name : Asterix et Obelix Au service de Sa Majeste (2012) 3D Full-T&B (x265)
Encoded date : UTC 2017-02-11 19:51:00
Writing application : mkvmerge v9.8.0 ('Kuglblids') 64bit
Writing library : libebml v1.3.4 + libmatroska v1.4.5
Video
ID : 1
Format : HEVC
Format/Info : High Efficiency Video Coding
Format profile : Main 10@L5@High
MultiView_Count : 2
MultiView_Layout : Top-Bottom (left eye first)
Codec ID : V_MPEGH/ISO/HEVC
Duration : 1 h 50 min
Bit rate : 10.8 Mb/s
Width : 1 920 pixels
Height : 2 160 pixels
Display aspect ratio : 0.889
Original display aspect ratio : 16:9
Frame rate mode : Constant
Frame rate : 23.976 (24000/1001) FPS
Color space : YUV
Chroma subsampling : 4:2:0
Bit depth : 10 bits
Bits/(Pixel*Frame) : 0.108
Stream size : 8.29 GiB (86%)
Title : 3D Full-T&B (x265)
Writing library : x265 2.2+30-fa52b516f5ff:[Windows][GCC 6.2.0][64 bit] 10bit
Encoding settings : cpuid=1050111 / frame-threads=3 / numa-pools=8 / wpp / no-pmode / no-pme / no-psnr / no-ssim / log-level=2 / input-csp=1 / input-res=1920x2160 / interlace=0 / total-frames=158400 / level-idc=50 / high-tier=1 / uhd-bd=0 / ref=1 / no-allow-non-conformance / no-repeat-headers / annexb / no-aud / no-hrd / info / hash=0 / no-temporal-layers / open-gop / min-keyint=23 / keyint=250 / bframes=4 / b-adapt=2 / b-pyramid / bframe-bias=0 / rc-lookahead=40 / lookahead-slices=2 / scenecut=40 / no-intra-refresh / ctu=32 / min-cu-size=8 / no-rect / no-amp / max-tu-size=16 / tu-inter-depth=1 / tu-intra-depth=1 / limit-tu=0 / rdoq-level=2 / complex-analysis=0.00 / signhide / no-tskip / nr-intra=0 / nr-inter=0 / no-constrained-intra / no-strong-intra-smoothing / max-merge=2 / limit-refs=0 / no-limit-modes / me=3 / subme=7 / merange=25 / temporal-mvp / weightp / weightb / no-analyze-src-pics / no-deblock / no-sao / no-sao-non-deblock / rd=3 / early-skip / no-rskip / fast-intra / no-tskip-fast / no-cu-lossless / no-b-intra / rdpenalty=0 / psy-rd=2.50 / psy-rdoq=5.00 / no-rd-refine / analysis-mode=0 / no-lossless / cbqpoffs=0 / crqpoffs=0 / rc=crf / crf=24.0 / qcomp=0.80 / qpstep=1 / stats-write=0 / stats-read=0 / vbv-maxrate=100000 / vbv-bufsize=100000 / vbv-init=0.9 / crf-max=0.0 / crf-min=0.0 / ipratio=1.10 / pbratio=1.10 / aq-mode=3 / aq-strength=0.50 / no-cutree / zone-count=0 / no-strict-cbr / qg-size=16 / no-rc-grain / qpmax=51 / qpmin=0 / sar=16 / overscan=0 / videoformat=5 / range=0 / colorprim=1 / transfer=2 / colormatrix=2 / chromaloc=0 / display-window=0 / max-cll=0,0 / min-luma=0 / max-luma=1023 / log2-max-poc-lsb=8 / vui-timing-info / vui-hrd-info / slices=1 / opt-qp-pps / opt-ref-list-length-pps / no-multi-pass-opt-rps / scenecut-bias=0.05 / no-opt-cu-delta-qp / no-aq-motion
Default : Yes
Forced : No
Color range : Limited
Color primaries : BT.709
Audio
ID : 2
Format : DTS
Format/Info : Digital Theater Systems
Mode : 16
Format settings, Endianness : Big
Codec ID : A_DTS
Duration : 1 h 50 min
Bit rate mode : Constant
Bit rate : 1 509 kb/s
Channel(s) : 6 channels
Channel positions : Front: L C R, Side: L R, LFE
Sampling rate : 48.0 kHz
Frame rate : 93.750 FPS (512 spf)
Bit depth : 16 bits
Compression mode : Lossy
Stream size : 1.16 GiB (12%)
Title : Russian (DTS-HD MA Core 5.1 48KHz)
Language : Russian
Default : Yes
Forced : No
Menu
00:00:00.000 : :1 - 0:00:00
00:06:00.777 : :2 - 0:06:01
00:15:09.199 : :3 - 0:15:09
00:22:58.168 : :4 - 0:22:58
00:29:16.588 : :5 - 0:29:17
00:36:26.559 : :6 - 0:36:27
00:42:32.299 : :7 - 0:42:32
00:49:52.823 : :8 - 0:49:53
00:54:20.924 : :9 - 0:54:21
01:02:13.938 : :10 - 1:02:14
01:09:40.634 : :11 - 1:09:41
01:18:59.317 : :12 - 1:18:59
01:24:40.784 : :13 - 1:24:41
01:29:14.223 : :14 - 1:29:14
01:37:28.842 : :15 - 1:37:29
01:42:58.755 : :16 - 1:42:59
01:50:06.516 : :17 - 1:50:07
x265 log & bitrate distributionx265 [info]: HEVC encoder version 2.2+30-fa52b516f5ff
x265 [info]: build info [Windows][GCC 6.2.0][64 bit] 10bit
x265 [info]: using cpu capabilities: MMX2 SSE2Fast SSSE3 SSE4.2 AVX
x265 [warning]: Specifying a decoder level with constant rate factor rate-control requires
x265 [warning]: enabling VBV with vbv-bufsize=100000kb vbv-maxrate=100000kbps. VBV outputs are non-deterministic!
x265 [info]: Main 10 profile, Level-5 (High tier)
x265 [info]: Thread pool created using 8 threads
x265 [info]: Slices : 1
x265 [info]: frame threads / pool features : 3 / wpp(68 rows)
x265 [info]: Coding QT: max CU size, min CU size : 32 / 8
x265 [info]: Residual QT: max TU size, max depth : 16 / 1 inter / 1 intra
x265 [info]: ME / range / subpel / merge : star / 25 / 7 / 2
x265 [info]: Keyframe min / max / scenecut / bias: 23 / 250 / 40 / 5.00
x265 [info]: Lookahead / bframes / badapt : 40 / 4 / 2
x265 [info]: b-pyramid / weightp / weightb : 1 / 1 / 1
x265 [info]: References / ref-limit cu / depth : 1 / off / off
x265 [info]: AQ: mode / str / qg-size / cu-tree : 3 / 0.5 / 16 / 0
x265 [info]: Rate Control / qCompress : CRF-24.0 / 0.80
x265 [info]: VBV/HRD buffer / max-rate / init : 100000 / 100000 / 0.900
x265 [info]: tools: rd=3 psy-rd=2.50 rdoq=2 psy-rdoq=5.00 early-skip signhide
x265 [info]: tools: tmvp fast-intra lslices=2
x265 [info]: frame I: 1903, Avg QP:23.28 kb/s: 42101.65
x265 [info]: frame P: 38897, Avg QP:23.77 kb/s: 18377.08
x265 [info]: frame B: 117600, Avg QP:24.66 kb/s: 8085.16
x265 [info]: Weighted P-Frames: Y:1.6% UV:1.2%
x265 [info]: Weighted B-Frames: Y:1.6% UV:1.0%
x265 [info]: consecutive B-frames: 12.1% 5.4% 4.4% 38.2% 39.9%
encoded 158400 frames in 61799.53s (2.56 fps), 11021.13 kb/s, Avg QP:24.42
Скачать
[Профиль] [ЛС]
Показать сообщения:    
Ответить на тему

Текущее время: 18-Окт 12:35

Часовой пояс: UTC ± 0



Вы не можете начинать темы
Вы не можете отвечать на сообщения
Вы не можете редактировать свои сообщения
Вы не можете удалять свои сообщения
Вы не можете голосовать в опросах
Вы не можете прикреплять файлы к сообщениям
Вы не можете скачивать файлы