Настоящая легенда / Su Qi-er (2010) BDRip 720p от Koenig | D

Ответить на тему
 
Автор Сообщение

Russian Mafia ®

Пол: Мужской

Стаж: 1 год 9 месяца

Сообщений: 4676

Создавать темы 12-Фев-2017 10:40

[Цитировать]

Информация о фильме
Название: Настоящая легенда
Оригинальное название: Su Qi-er
Год выхода: 2010
Жанр: фэнтези, боевик, драма
Режиссер: Ву-Пин Юэнь
В ролях: Винг Жао, Сюнь Чжоу, Энди Он, Мишель Йео, Джей Чоу, Гордон Лиу, Леунг Ка-Ян, Гуо Сяодон, Дэвид Кэрредин
О фильме:
Су, генерал в армии принца, устал от войн и покидает пост на самом взлете, оставив вместо себя своего сводного брата Юаня. Вместе с женой, родной сестрой Юаня, Су перебирается в провинцию, где вскоре у них рождается сын. Но Юань на самом деле уже давно и люто ненавидит семью Су, отец которого когда-то убил его собственного отца, и все эти годы изучал смертоносную технику кулака пяти ядов. И свой гнев он обрушит на Су, когда тот будет ожидать этого меньше всего.

Страна: Китай
Студия: Edko Films, Edko Management and Consulting, Focus Features
Продолжительность: 01:54:46
Перевод: Дублированный
Файл
Кодек: x264
Качество: BDRip 720p (PriMaLHD)
Видео: MPEG-4 AVC, 8059 Кбит/с, 1280x544, 23.976 кадр/c
Аудио #1: AC3, 6 ch, 384 Кбит/с | Русский
Аудио #2: DTS, 6 ch, 1509 Кбит/с | Kитайский
Субтитры: Русские, английские

MediaInfo

Общее
Уникальный идентификатор : 205576583549667430818137882354744275769 (0x9AA89C1CA8E493EC9B8B8035F89BB339)
Полное имя : True.Legend.2010.BDRip.720p.mkv
Формат : Matroska
Версия формата : Version 4 / Version 2
Размер файла : 7,98 Гбайт
Продолжительность : 1 ч. 54 м.
Общий поток : 9955 Кбит/сек
Название фильма : True.Legend.2010
Дата кодирования : UTC 2017-02-11 13:49:08
Программа кодирования : mkvmerge v9.2.0 ('Photograph') 32bit
Библиотека кодирования : libebml v1.3.3 + libmatroska v1.4.4
Обложка : Yes
Attachments : cover.jpg
Видео
Идентификатор : 1
Формат : AVC
Формат/Информация : Advanced Video Codec
Профиль формата : High@L4.1
Параметр CABAC формата : Да
Параметр ReFrames формата : 12 кадров
Идентификатор кодека : V_MPEG4/ISO/AVC
Продолжительность : 1 ч. 54 м.
Битрейт : 8059 Кбит/сек
Ширина : 1280 пикселей
Высота : 544 пикселя
Соотношение сторон : 2,35:1
Режим частоты кадров : Постоянный
Частота кадров : 23,976 (24000/1001) кадра/сек
Цветовое пространство : YUV
Субдискретизация насыщенности : 4:2:0
Битовая глубина : 8 бит
Тип развёртки : Прогрессивная
Бит/(Пиксели*Кадры) : 0.483
Размер потока : 6,46 Гбайт (81%)
Заголовок : True.Legend.2010
Библиотека кодирования : x264 core 142 r2431+42 c69a006 tMod [8-bit@4:2:0 X86_64]
Настройки программы : cabac=1 / ref=12 / deblock=1:-3:-3 / analyse=0x3:0x113 / me=umh / subme=11 / psy=1 / fade_compensate=0.00 / psy_rd=1.05:0.00 / mixed_ref=1 / me_range=32 / chroma_me=1 / trellis=2 / 8x8dct=1 / cqm=0 / deadzone=21,11 / fast_pskip=0 / chroma_qp_offset=-2 / threads=12 / lookahead_threads=2 / sliced_threads=0 / nr=0 / decimate=0 / interlaced=0 / bluray_compat=0 / constrained_intra=0 / fgo=0 / bframes=8 / b_pyramid=2 / b_adapt=2 / b_bias=0 / direct=3 / weightb=1 / open_gop=0 / weightp=2 / keyint=250 / keyint_min=23 / scenecut=40 / intra_refresh=0 / rc_lookahead=60 / rc=crf / mbtree=0 / crf=16.6000 / qcomp=0.65 / qpmin=0:0:0 / qpmax=69:69:69 / qpstep=4 / vbv_maxrate=30000 / vbv_bufsize=38000 / crf_max=0.0 / nal_hrd=none / filler=0 / ip_ratio=1.30 / pb_ratio=1.20 / aq=3:0.75 / aq-sensitivity=10.00 / aq-factor=1.00:1.00:1.00 / aq2=0 / aq3=0
Язык : Chinese
Default : Да
Forced : Нет
Цветовой диапазон : Limited
Основные цвета : BT.709
Характеристики трансфера : BT.709
Коэффициенты матрицы : BT.709
Аудио #1
Идентификатор : 2
Формат : AC-3
Формат/Информация : Audio Coding 3
Расширение режима : CM (complete main)
Параметр Endianness формата : Big
Идентификатор кодека : A_AC3
Продолжительность : 1 ч. 54 м.
Вид битрейта : Постоянный
Битрейт : 384 Кбит/сек
Каналы : 6 каналов
Расположение каналов : Front: L C R, Side: L R, LFE
Частота : 48,0 КГц
Частота кадров : 31,250 кадров/сек (1536 spf)
Битовая глубина : 16 бит
Метод сжатия : С потерями
Размер потока : 315 Мбайт (4%)
Заголовок : DUB
Язык : Russian
Default : Да
Forced : Нет
Аудио #2
Идентификатор : 3
Формат : DTS
Формат/Информация : Digital Theater Systems
Режим : 16
Параметр Endianness формата : Big
Идентификатор кодека : A_DTS
Продолжительность : 1 ч. 54 м.
Вид битрейта : Постоянный
Битрейт : 1509 Кбит/сек
Каналы : 6 каналов
Расположение каналов : Front: L C R, Side: L R, LFE
Частота : 48,0 КГц
Частота кадров : 93,750 кадра/сек (512 spf)
Битовая глубина : 24 бит
Метод сжатия : С потерями
Размер потока : 1,21 Гбайт (15%)
Заголовок : Mandarin
Язык : Chinese
Default : Нет
Forced : Нет
Текст #1
Идентификатор : 4
Формат : UTF-8
Идентификатор кодека : S_TEXT/UTF8
Идентификатор кодека/Информация : UTF-8 Plain Text
Продолжительность : 1 ч. 48 м.
Битрейт : 49 бит/сек
Count of elements : 744
Размер потока : 39,1 Кбайт (0%)
Заголовок : R5
Язык : Russian
Default : Нет
Forced : Нет
Текст #2
Идентификатор : 5
Формат : UTF-8
Идентификатор кодека : S_TEXT/UTF8
Идентификатор кодека/Информация : UTF-8 Plain Text
Продолжительность : 1 ч. 47 м.
Битрейт : 25 бит/сек
Count of elements : 773
Размер потока : 20,1 Кбайт (0%)
Язык : English
Default : Нет
Forced : Нет
Меню
00:00:00.000 : zh:00:00:00.000
00:07:41.378 : zh:00:07:41.378
00:15:00.900 : zh:00:15:00.900
00:28:59.696 : zh:00:28:59.696
00:39:35.248 : zh:00:39:35.248
00:48:46.507 : zh:00:48:46.507
00:59:12.966 : zh:00:59:12.966
01:08:11.004 : zh:01:08:11.004
01:17:24.139 : zh:01:17:24.139
01:28:39.689 : zh:01:28:39.689
01:36:38.835 : zh:01:36:38.835
01:47:11.675 : zh:01:47:11.675

Скриншоты

Скачать
[Профиль] [ЛС]
Показать сообщения:    
Ответить на тему

Текущее время: 18-Окт 15:45

Часовой пояс: UTC ± 0



Вы не можете начинать темы
Вы не можете отвечать на сообщения
Вы не можете редактировать свои сообщения
Вы не можете удалять свои сообщения
Вы не можете голосовать в опросах
Вы не можете прикреплять файлы к сообщениям
Вы не можете скачивать файлы