Обитель зла 4: Жизнь после смерти / Resident Evil: Afterlife (2010) BDRip [H.265/2160p] [4K]

Ответить на тему
 
Автор Сообщение

Russian Mafia ®

Пол: Мужской

Стаж: 1 год 9 месяца

Сообщений: 4676

Создавать темы 12-Фев-2017 09:21

[Цитировать]

- Обитель зла 4: Жизнь после смерти / Resident Evil: Afterlife (2010) BDRip - Производство: Германия, Франция, США, Канада, Constantin Film Produktion.
Жанр: Ужасы, Фантастика, Боевик, Приключения
Режиссер: Пол У. С. Андерсон
Актеры: Милла Йовович, Эли Лартер, Вентворт Миллер, Борис Коджо, Ким Коутс, Шон Робертс, Серхио Перис-Менчета, Спенсер Лок, Сиенна Гиллори, Кейси Барнфилд.
Описание:
Элис продолжает свой путь в мире, поражённом вирусной инфекцией, превращающей людей в нежить. Героиня ищет оставшихся в живых, чтобы вывести их в безопасное место. Её смертельная битва с корпорацией Амбрелла выходит на новый уровень…
Возраст: 18+ (зрителям, достигшим 18 лет. запрещено для детей)
Рейтинг MPAA: R (лицам до 17 лет обязательно присутствие взрослого)
Дата выхода DVD/Blu-ray релиза: 14.10.2010
Продолжительность: 01:37:32
Качество видео: BDRip (2160p)
Перевод: Дублированный
Язык субтитров: Английский
Вид субтитров: Вшитые, отключаемые
Видео: HEVC/H.265, 3840x2160, ~35.4M bps
Аудио #1: AC3, 6 ch, 448 Kbps, 48.0 kHz - Русский
Аудио #2: AC3, 2 ch, 192 Kbps, 48.0 kHz - Украинский
Аудио #3: DTS, 6 ch, 2 262 Kbps, 48.0 kHz - Английский

Тех. инфо

General
Unique ID : 175959135253441837009888067195280978651 (0x84607F2B7CAB10B6929B9F23D40A72DB)
Complete name : E:\Torrent\FINISH\MOVIE\UHD\Resident Evil Afterlife (2010) 2160p 4K UltraHD BluRay HEVC 10 Bits DTSHD 5.1.mkv
Format : Matroska
Format version : Version 4 / Version 2
File size : 26.1 GiB
Duration : 1 h 37 min
Overall bit rate : 38.3 Mb/s
Encoded date : UTC 2017-02-07 17:15:40
Writing application : mkvmerge v9.8.0 ('Kuglblids') 64bit
Writing library : libebml v1.3.4 + libmatroska v1.4.5
Video
ID : 1
Format : HEVC
Format/Info : High Efficiency Video Coding
Format profile : Main 10@L5@Main
Codec ID : V_MPEGH/ISO/HEVC
Duration : 1 h 37 min
Bit rate : 35.4 Mb/s
Width : 3 840 pixels
Height : 2 160 pixels
Display aspect ratio : 16:9
Frame rate mode : Constant
Frame rate : 23.976 (24000/1001) FPS
Color space : YUV
Chroma subsampling : 4:2:0
Bit depth : 10 bits
Bits/(Pixel*Frame) : 0.178
Stream size : 24.1 GiB (92%)
Writing library : x265 2.2+22-20217c8af8ac:[Windows][GCC 6.2.0][64 bit] 10bit
Encoding settings : cpuid=1173503 / frame-threads=5 / numa-pools=14,14 / wpp / no-pmode / no-pme / no-psnr / no-ssim / log-level=2 / input-csp=1 / input-res=3840x2160 / interlace=0 / total-frames=140297 / level-idc=0 / high-tier=1 / uhd-bd=0 / ref=3 / no-allow-non-conformance / no-repeat-headers / annexb / no-aud / no-hrd / info / hash=0 / no-temporal-layers / open-gop / min-keyint=23 / keyint=250 / bframes=4 / b-adapt=2 / b-pyramid / bframe-bias=0 / rc-lookahead=20 / lookahead-slices=8 / scenecut=40 / no-intra-refresh / ctu=64 / min-cu-size=8 / no-rect / no-amp / max-tu-size=32 / tu-inter-depth=1 / tu-intra-depth=1 / limit-tu=0 / rdoq-level=0 / signhide / no-tskip / nr-intra=0 / nr-inter=0 / no-constrained-intra / no-strong-intra-smoothing / max-merge=2 / limit-refs=3 / no-limit-modes / me=3 / subme=2 / merange=57 / temporal-mvp / weightp / no-weightb / no-analyze-src-pics / deblock=-3:-3 / no-sao / no-sao-non-deblock / rd=3 / no-early-skip / rskip / no-fast-intra / no-tskip-fast / no-cu-lossless / no-b-intra / rdpenalty=0 / psy-rd=3.50 / psy-rdoq=0.00 / no-rd-refine / analysis-mode=0 / no-lossless / cbqpoffs=0 / crqpoffs=0 / rc=crf / crf=14.0 / qcomp=0.60 / qpstep=4 / stats-write=0 / stats-read=0 / ipratio=1.40 / pbratio=1.30 / aq-mode=2 / aq-strength=1.00 / cutree / zone-count=0 / no-strict-cbr / qg-size=32 / no-rc-grain / qpmax=69 / qpmin=0 / sar=1 / overscan=0 / videoformat=5 / range=0 / colorprim=1 / transfer=1 / colormatrix=1 / chromaloc=0 / display-window=0 / max-cll=0,0 / min-luma=0 / max-luma=1023 / log2-max-poc-lsb=8 / vui-timing-info / vui-hrd-info / slices=1 / opt-qp-pps / opt-ref-list-length-pps / no-multi-pass-opt-rps / scenecut-bias=0.05 / no-opt-cu-delta-qp / aq-motion
Language : Russian
Default : Yes
Forced : No
Color range : Limited
Color primaries : BT.709
Transfer characteristics : BT.709
Matrix coefficients : BT.709
Audio #1
ID : 2
Format : AC-3
Format/Info : Audio Coding 3
Mode extension : CM (complete main)
Format settings, Endianness : Big
Codec ID : A_AC3
Duration : 1 h 36 min
Bit rate mode : Constant
Bit rate : 448 kb/s
Channel(s) : 6 channels
Channel positions : Front: L C R, Side: L R, LFE
Sampling rate : 48.0 kHz
Frame rate : 31.250 FPS (1536 spf)
Bit depth : 16 bits
Compression mode : Lossy
Delay relative to video : 34 s 920 ms
Stream size : 310 MiB (1%)
Title : Русский
Language : Russian
Default : Yes
Forced : No
Audio #2
ID : 3
Format : AC-3
Format/Info : Audio Coding 3
Format profile : Dolby Digital
Mode extension : CM (complete main)
Format settings, Endianness : Big
Codec ID : A_AC3
Duration : 1 h 36 min
Bit rate mode : Constant
Bit rate : 192 kb/s
Channel(s) : 2 channels
Channel positions : Front: L R
Sampling rate : 48.0 kHz
Frame rate : 31.250 FPS (1536 spf)
Bit depth : 16 bits
Compression mode : Lossy
Delay relative to video : 34 s 920 ms
Stream size : 133 MiB (0%)
Title : Украинский
Language : Ukrainian
Default : No
Forced : No
Audio #3
ID : 4
Format : DTS
Format/Info : Digital Theater Systems
Format profile : MA / Core
Mode : 16
Format settings, Endianness : Big
Codec ID : A_DTS
Duration : 1 h 36 min
Bit rate mode : Variable / Constant
Bit rate : 2 262 kb/s / 1 509 kb/s
Channel(s) : 6 channels
Channel positions : Front: L C R, Side: L R, LFE
Sampling rate : 48.0 kHz
Frame rate : 93.750 FPS (512 spf)
Bit depth : 16 bits
Compression mode : Lossless / Lossy
Stream size : 1.53 GiB (6%)
Title : English
Language : English
Default : No
Forced : No
Text #1
ID : 5
Format : VobSub
Muxing mode : zlib
Codec ID : S_VOBSUB
Codec ID/Info : Picture based subtitle format used on DVDs
Duration : 1 h 36 min
Bit rate : 3 550 b/s
Count of elements : 795
Stream size : 2.44 MiB (0%)
Language : English
Default : Yes
Forced : No
Text #2
ID : 6
Format : VobSub
Muxing mode : zlib
Codec ID : S_VOBSUB
Codec ID/Info : Picture based subtitle format used on DVDs
Duration : 1 min 32 s
Bit rate : 2 580 b/s
Count of elements : 12
Stream size : 29.0 KiB (0%)
Language : English
Default : No
Forced : No
Menu
00:00:00.000 : en:00:00:00.000
00:07:31.117 : en:00:07:31.117
00:13:24.053 : en:00:13:24.053
00:18:06.085 : en:00:18:06.085
00:25:30.446 : en:00:25:30.446
00:30:14.229 : en:00:30:14.229
00:38:19.339 : en:00:38:19.339
00:41:27.276 : en:00:41:27.276
00:49:56.368 : en:00:49:56.368
00:56:46.111 : en:00:56:46.111
01:04:30.950 : en:01:04:30.950
01:08:22.098 : en:01:08:22.098
01:13:19.895 : en:01:13:19.895
01:18:01.719 : en:01:18:01.719
01:27:31.496 : en:01:27:31.496
01:30:03.064 : en:01:30:03.064

Скриншоты

Скриншоты:
Скачать
[Профиль] [ЛС]
Показать сообщения:    
Ответить на тему

Текущее время: 18-Окт 16:08

Часовой пояс: UTC ± 0



Вы не можете начинать темы
Вы не можете отвечать на сообщения
Вы не можете редактировать свои сообщения
Вы не можете удалять свои сообщения
Вы не можете голосовать в опросах
Вы не можете прикреплять файлы к сообщениям
Вы не можете скачивать файлы