Крест. Часть вторая: Двойной обман / Cross Wars (2017) BDRip 720p | iTunes

Ответить на тему
 
Автор Сообщение

Russian Mafia ®

Пол: Мужской

Стаж: 1 год 9 месяца

Сообщений: 4676

Создавать темы 12-Фев-2017 07:34

[Цитировать]

Информация о фильме
Название: Крест. Часть вторая: Двойной обман
Оригинальное название: Cross Wars
Год выхода: 2017
Жанр: Боевик
Режиссер: Патрик Дархэм
В ролях: Брайан Остин Грин, Дэнни Трехо, Винни Джонс, Патрик Дархэм, Том Сайзмор, Лори Хёринг, Тим Эбелл, Андре Гордон, Нед Либл
О фильме: Возвращение непримиримого борца со злом Каллана, обладателя древнего магического амулета Крест, и его брутальной команды. Теперь их жизням угрожает новый враг Муэрте и их старый знакомый, проклятый викинг Гуннар. Чтобы спастись самим и спасти всё человечество, герои вынуждены объединиться с командой воинственных женщин, возглавляемых красавицей Райли, у которой есть своей древний амулет.


Выпущено: США / El Ride Productions, Four Horsemen Films, Morningstar Films
Продолжительность: 01:38:14
Перевод: Профессиональный многоголосый [iTunes]
Файл
Формат: MKV
Качество: BDRip 720p
Видео: MPEG-4 AVC, 6100 kb/s, 1280x690
Аудио: Russian: AC3, 384 kb/s (6 ch) / AC3, 640 kb/s (6 ch)
Субтитры: Russian (full), English (full)

MI

Общее
Уникальный идентификатор : 199015108369376650634382743228863687073 (0x95B8EA68A7A0299E959EA6EC048329A1)
Полное имя : D:загрузкиCross.Wars.2017.P.BDRip.720p.mkv
Формат : Matroska
Версия формата : Version 2
Размер файла : 5,01 Гбайт
Продолжительность : 1 ч. 38 м.
Общий поток : 7304 Кбит/сек
Дата кодирования : UTC 2017-02-12 06:56:59
Программа кодирования : mkvmerge v7.8.0 ('River Man') 32bit built on Apr 3 2015 12:11:22
Библиотека кодирования : libebml v1.3.1 + libmatroska v1.4.2
Видео
Идентификатор : 1
Формат : AVC
Формат/Информация : Advanced Video Codec
Профиль формата : High@L4.1
Параметр CABAC формата : Да
Параметр ReFrames формата : 9 кадров
Идентификатор кодека : V_MPEG4/ISO/AVC
Продолжительность : 1 ч. 38 м.
Битрейт : 6134 Кбит/сек
Ширина : 1280 пикселей
Высота : 690 пикселей
Соотношение сторон : 1,85:1
Режим частоты кадров : Постоянный
Частота кадров : 23,976 (24000/1001) кадра/сек
Цветовое пространство : YUV
Субдискретизация насыщенности : 4:2:0
Битовая глубина : 8 бит
Тип развёртки : Прогрессивная
Бит/(Пиксели*Кадры) : 0.290
Размер потока : 4,21 Гбайт (84%)
Библиотека кодирования : x264 core 148 r2744kMod b97ae06
Настройки программы : cabac=1 / ref=9 / deblock=1:-3:-3 / analyse=0x3:0x133 / me=umh / subme=11 / psy=1 / fade_compensate=0.00 / psy_rd=1.05:1.00 / mixed_ref=1 / me_range=32 / chroma_me=1 / trellis=2 / 8x8dct=1 / cqm=0 / deadzone=21,11 / fast_pskip=0 / chroma_qp_offset=-4 / threads=18 / lookahead_threads=3 / sliced_threads=0 / nr=0 / decimate=0 / interlaced=0 / bluray_compat=0 / constrained_intra=0 / bframes=8 / b_pyramid=2 / b_adapt=2 / b_bias=0 / direct=3 / weightb=1 / open_gop=0 / weightp=2 / keyint=240 / keyint_min=23 / scenecut=40 / intra_refresh=0 / rc_lookahead=60 / rc=crf / mbtree=0 / crf=19.3000 / qcomp=0.60 / qpmin=0 / qpmax=69 / qpstep=4 / vbv_maxrate=40000 / vbv_bufsize=30000 / crf_max=0.0 / nal_hrd=none / filler=0 / ip_ratio=1.40 / pb_ratio=1.30 / aq=1:1.00
Язык : English
Default : Да
Forced : Нет
Аудио #1
Идентификатор : 2
Формат : AC-3
Формат/Информация : Audio Coding 3
Расширение режима : CM (complete main)
Параметр Endianness формата : Big
Идентификатор кодека : A_AC3
Продолжительность : 1 ч. 38 м.
Вид битрейта : Постоянный
Битрейт : 384 Кбит/сек
Каналы : 6 каналов
Расположение каналов : Front: L C R, Side: L R, LFE
Частота : 48,0 КГц
Частота кадров : 31,250 кадров/сек (1536 spf)
Битовая глубина : 16 бит
Метод сжатия : С потерями
Размер потока : 270 Мбайт (5%)
Заголовок : iTunes
Язык : Russian
Default : Да
Forced : Нет
Аудио #2
Идентификатор : 3
Формат : AC-3
Формат/Информация : Audio Coding 3
Расширение режима : CM (complete main)
Параметр Endianness формата : Big
Идентификатор кодека : A_AC3
Продолжительность : 1 ч. 38 м.
Вид битрейта : Постоянный
Битрейт : 640 Кбит/сек
Каналы : 6 каналов
Расположение каналов : Front: L C R, Side: L R, LFE
Частота : 48,0 КГц
Частота кадров : 31,250 кадров/сек (1536 spf)
Битовая глубина : 16 бит
Метод сжатия : С потерями
Размер потока : 450 Мбайт (9%)
Язык : English
Default : Нет
Forced : Нет
Текст #1
Идентификатор : 4
Формат : UTF-8
Идентификатор кодека : S_TEXT/UTF8
Идентификатор кодека/Информация : UTF-8 Plain Text
Заголовок : full
Язык : Russian
Default : Нет
Forced : Нет
Текст #2
Идентификатор : 5
Формат : UTF-8
Идентификатор кодека : S_TEXT/UTF8
Идентификатор кодека/Информация : UTF-8 Plain Text
Язык : English
Default : Нет
Forced : Нет
Меню
00:00:00.000 : en:00:00:00.000
00:05:20.529 : en:00:05:20.529
00:13:17.714 : en:00:13:17.714
00:19:28.376 : en:00:19:28.376
00:27:18.554 : en:00:27:18.554
00:36:47.497 : en:00:36:47.497
00:42:52.570 : en:00:42:52.570
00:48:13.682 : en:00:48:13.682
00:55:09.515 : en:00:55:09.515
01:00:26.414 : en:01:00:26.414
01:06:06.296 : en:01:06:06.296
01:11:04.677 : en:01:11:04.677
01:14:51.320 : en:01:14:51.320
01:19:50.828 : en:01:19:50.828
01:25:02.055 : en:01:25:02.055
01:32:19.033 : en:01:32:19.033

Скриншоты



Скачать
[Профиль] [ЛС]
Показать сообщения:    
Ответить на тему

Текущее время: 18-Окт 15:45

Часовой пояс: UTC ± 0



Вы не можете начинать темы
Вы не можете отвечать на сообщения
Вы не можете редактировать свои сообщения
Вы не можете удалять свои сообщения
Вы не можете голосовать в опросах
Вы не можете прикреплять файлы к сообщениям
Вы не можете скачивать файлы