Маша и Медведь: Спи, моя радость, усни! (2017) WEB-DL [H.264/1080p-LQ] (Серия 62)

Ответить на тему
 
Автор Сообщение

Russian Mafia ®

Пол: Мужской

Стаж: 1 год 9 месяца

Сообщений: 4676

Создавать темы 03-Фев-2017 12:53

[Цитировать]

-Маша и Медведь: Спи, моя радость, усни! (2017) WEB-DL [H.264/1080p-LQ] (Серия 62)- Жанр: Детский, Комедия, Семейный
Производство: Россия, Студия "Анимаккорд"
Описание:
Медведь делится с Машей опытом залегания в зимнюю спячку и учит ее считать овечек, чтобы быстрее уснуть!
Маша так увлекается их подсчётом, что затевает свою, совсем не колыбельную историю с весёлыми песнями и танцами…
Режиссер: Олег Кузовков, Владислав Байрамгулов, Наталья Мальгина
Продюсер: Андрей Добрунов, Дмитрий Ловейко, Олег Кузовков
Персонажи: Алина Кукушкина, Эдуард Назаров, Борис Кутневич
[kp]http://www.kinopoisk.ru/film/478491/[/kp]
Продолжительность: 00:07:23
Качество видео: WEB-DL
Вид субтитров: Отсутствуют
Видео: AVC/H.264, 1920x1080, 2901 kbps
Аудио: AC3 Dolby Digital, 2/0 (L,R) ch, ~192 kbps

MI

Общее
Уникальный идентификатор                 : 252282708965825732255576228243551089439 (0xBDCBE1E2A988EFAD90B8B3448584F31F)
Полное имя                               : D:\Маша и медведь. Спи моя радость усни (62 серия) WEB-DL.[1080p].NNMClub.mkv
Формат                                   : Matroska
Версия формата                           : Version 4 / Version 2
Размер файла                             : 164 Мбайт
Продолжительность                        : 7 м. 23 с.
Общий поток                              : 3094 Кбит/сек
Название фильма                          : Маша и медведь. Спи моя радость усни (62 серия) WEB-DL.[1080p].NNMClub
Дата кодирования                         : UTC 2017-02-03 09:51:42
Программа кодирования                    : mkvmerge v8.3.0 ('Over the Horizon') 64bit
Библиотека кодирования                   : libebml v1.3.1 + libmatroska v1.4.2
Видео
Идентификатор                            : 1
Формат                                   : AVC
Формат/Информация                        : Advanced Video Codec
Профиль формата                          : High@L4
Параметр CABAC формата                   : Да
Параметр ReFrames формата                : 2 кадра
Идентификатор кодека                     : V_MPEG4/ISO/AVC
Продолжительность                        : 7 м. 23 с.
Битрейт                                  : 2901 Кбит/сек
Ширина                                   : 1920 пикселей
Высота                                   : 1080 пикселей
Соотношение сторон                       : 16:9
Режим частоты кадров                     : Постоянный
Частота кадров                           : 25,000 кадров/сек
Цветовое пространство                    : YUV
Субдискретизация насыщенности            : 4:2:0
Битовая глубина                          : 8 бит
Тип развёртки                            : Прогрессивная
Бит/(Пиксели*Кадры)                      : 0.056
Размер потока                            : 153 Мбайт (94%)
Заголовок                                : Маша и медведь. Спи моя радость усни (62 серия) WEB-DL.[1080p].NNMClub
Язык                                     : Russian
Default                                  : Да
Forced                                   : Нет
Цветовой диапазон                        : Limited
Основные цвета                           : BT.709
Характеристики трансфера                 : BT.709
Коэффициенты матрицы                     : BT.709
Аудио
Идентификатор                            : 2
Формат                                   : AC-3
Формат/Информация                        : Audio Coding 3
Расширение режима                        : CM (complete main)
Параметр Endianness формата              : Big
Идентификатор кодека                     : A_AC3
Продолжительность                        : 7 м. 23 с.
Вид битрейта                             : Постоянный
Битрейт                                  : 192 Кбит/сек
Каналы                                   : 2 канала
Расположение каналов                     : Front: L R
Частота                                  : 48,0 КГц
Частота кадров                           : 31,250 кадров/сек (1536 spf)
Метод сжатия                             : С потерями
Размер потока                            : 10,2 Мбайт (6%)
Язык                                     : Russian
Default                                  : Да
Forced                                   : Нет
Скриншоты:
Скачать
[Профиль] [ЛС]
Показать сообщения:    
Ответить на тему

Текущее время: 18-Окт 15:45

Часовой пояс: UTC ± 0



Вы не можете начинать темы
Вы не можете отвечать на сообщения
Вы не можете редактировать свои сообщения
Вы не можете удалять свои сообщения
Вы не можете голосовать в опросах
Вы не можете прикреплять файлы к сообщениям
Вы не можете скачивать файлы