Адреналин 2: Высокое напряжение / Crank 2: High Voltage (Марк Невелдайн, Брайан Тейлор / Mark Neveldine, Brian Taylor) [2009, США, Боевик, триллер, криминал, BDRip-AVC] Dub + Sub Rus, Eng + Original Eng

Ответить на тему
 
Автор Сообщение

Virtuoz ®

Пол: Мужской

Стаж: 1 год 9 месяца

Сообщений: 1375

Создавать темы 04-Янв-2017 22:53

[Цитировать]

Адреналин 2: Высокое напряжениеCrank: High Voltage««Он заряжен, чтобы вернуть свое сердце...»»

Страна:США
Жанр: Боевик, триллер, криминал
Год выпуска: 2009
Продолжительность: 01:35:50
Перевод: Профессиональный (дублированный) BD
Перевод 2: Авторский (одноголосый закадровый) Д.Пучков (Гоблин)
Cубтитры: русские ,английские
Оригинальная аудиодорожка: английский
Режиссер: Марк Невелдайн, Брайан Тейлор / Mark Neveldine, Brian Taylor
В ролях: Джейсон Стэтхэм, Эми Смарт, Клифтон Коллинз мл., Бай Лин, Дэвид Кэррадайн, Кори Хэйм, Эфрен Рамирез, Дуайт Йоакам, Гленн Хоуертон, Холли Вебер
Описание: Он умер, но обещал вернуться! Не чудом, а благодаря современным медицинским технологиям Чев Челиос получает новое сердце и новый шанс отомстить своим врагам. Теперь для постоянной подзарядки ему требуется электрический разряд мощностью не меньше, чем у автомобильного аккумулятора...
Доп. информация:
Релиз группы:
Сохранены оригинальные главы как на BD
Качество видео: BDRip-AVC | Адреналин 2: Высокое напряжение / Crank 2: High Voltage (2009) 1080p BD-Remux| HD club
Формат видео: MKV
Видео: 1068x578 (1:85:1), 23,976 fps, 4498 Кbps, 0.305 bit/pixe
Аудио: 48 kHz, AC3 Dolby Digital, 3/2 (L,C,R,l,r) + LFE ch, ~448.00 kbps avg | DUB
Аудио 2: 48 kHz, AC3 Dolby Digital, 3/2 (L,C,R,l,r) + LFE ch, ~448.00 kbps avg | AVO отдельно
Аудио 3: 48 kHz, AC3 Dolby Digital, 3/2 (L,C,R,l,r) + LFE ch, ~448.00 kbps avg | ENG
Формат субтитров: softsub (SRT)
Доп. информация о субтитрах: отключаемые

Доп. информация о переводе
Внимание в переводе Гоблина присутствует нецензурная лексика,как и в русских сабах!
Знаете ли Вы что
• Снят с показа во всех кинотеатрах Беларуси за большое количество сцен недопустимо фривольного юмора и сцен визуальной жестокости.
• Песня группы Linkin Park «Given Up» звучала в трейлере к фильму, но не была включена в фильм.
• У лидера группы Linkin Park Честера Беннингтона есть камео в обоих частях «Адреналина». В первой он в аптеке советует Чеву, что лучше купить, во второй Честер возмущается, когда главный герой пытается об него тереться.
• Слово «fuck» произносится в картине 164 раза.
MediaInfo
General
Unique ID : 186877789348683163961314819294700364032 (0x8C975A61240F6908A638BA804E51E100)
Complete name : E:\Мои рипы\Адреналин 2\Crank 2 High Voltage by_IVAN@190282.mkv
Format : Matroska
Format version : Version 4 / Version 2
File size : 3.70 GiB
Duration : 1h 35mn
Overall bit rate : 5 522 Kbps
Encoded date : UTC 2016-03-09 20:58:56
Writing application : mkvmerge v8.8.0 ('Wind at my back') 64bit
Writing library : libebml v1.3.3 + libmatroska v1.4.4
Attachements : cover.jpg
DURATION : 01:33:45.078000000
NUMBER_OF_FRAMES : 1085
NUMBER_OF_BYTES : 32133
_STATISTICS_WRITING_APP : mkvmerge v8.8.0 ('Wind at my back') 64bit
_STATISTICS_WRITING_DATE_UT : 2016-03-09 20:58:56
_STATISTICS_TAGS : BPS DURATION NUMBER_OF_FRAMES NUMBER_OF_BYTES
Video
ID : 1
Format : AVC
Format/Info : Advanced Video Codec
Format profile : High@L4.1
Format settings, CABAC : Yes
Format settings, ReFrames : 14 frames
Codec ID : V_MPEG4/ISO/AVC
Duration : 1h 35mn
Bit rate : 4 516 Kbps
Width : 1 068 pixels
Height : 578 pixels
Display aspect ratio : 1.85:1
Frame rate mode : Constant
Frame rate : 23.976 fps
Color space : YUV
Chroma subsampling : 4:2:0
Bit depth : 8 bits
Scan type : Progressive
Bits/(Pixel*Frame) : 0.305
Stream size : 3.02 GiB (82%)
Title : Crank 2 High Voltage by_IVAN@190282
Writing library : x264 core 146 r2538kMod 121396c
Encoding settings : cabac=1 / ref=14 / deblock=1:-3:-3 / analyse=0x3:0x113 / me=umh / subme=11 / psy=1 / fade_compensate=0.00 / psy_rd=1.00:0.15 / mixed_ref=1 / me_range=48 / chroma_me=1 / trellis=2 / 8x8dct=1 / cqm=0 / deadzone=21,11 / fast_pskip=0 / chroma_qp_offset=0 / threads=6 / lookahead_threads=6 / sliced_threads=0 / slices=10 / nr=0 / decimate=1 / interlaced=0 / bluray_compat=0 / constrained_intra=0 / fgo=0 / bframes=16 / b_pyramid=2 / b_adapt=2 / b_bias=0 / direct=3 / weightb=1 / open_gop=1 / weightp=2 / keyint=240 / keyint_min=23 / scenecut=40 / intra_refresh=0 / rc_lookahead=40 / rc=crf / mbtree=0 / crf=19.4000 / qcomp=0.60 / qpmin=0 / qpmax=69 / qpstep=4 / vbv_maxrate=50000 / vbv_bufsize=62500 / crf_max=0.0 / nal_hrd=none / filler=0 / ip_ratio=1.40 / pb_ratio=1.30 / aq=1:1.00
Default : Yes
Forced : No
Color range : Limited
Color primaries : BT.709
Transfer characteristics : BT.709
Matrix coefficients : BT.709
Audio #1
ID : 2
Format : AC-3
Format/Info : Audio Coding 3
Mode extension : CM (complete main)
Format settings, Endianness : Big
Codec ID : A_AC3
Duration : 1h 35mn
Bit rate mode : Constant
Bit rate : 448 Kbps
Channel(s) : 6 channels
Channel positions : Front: L C R, Side: L R, LFE
Sampling rate : 48.0 KHz
Compression mode : Lossy
Stream size : 307 MiB (8%)
Title : Dub
Language : Russian
Default : Yes
Forced : No
Audio #2
ID : 3
Format : AC-3
Format/Info : Audio Coding 3
Mode extension : CM (complete main)
Format settings, Endianness : Big
Codec ID : A_AC3
Duration : 1h 35mn
Bit rate mode : Constant
Bit rate : 448 Kbps
Channel(s) : 6 channels
Channel positions : Front: L C R, Side: L R, LFE
Sampling rate : 48.0 KHz
Compression mode : Lossy
Stream size : 307 MiB (8%)
Title : Eng
Language : English
Default : No
Forced : No
Text #1
ID : 4
Format : UTF-8
Codec ID : S_TEXT/UTF8
Codec ID/Info : UTF-8 Plain Text
Title : Rus
Language : Russian
Default : No
Forced : No
Text #2
ID : 5
Format : UTF-8
Codec ID : S_TEXT/UTF8
Codec ID/Info : UTF-8 Plain Text
Title : Eng
Language : English
Default : No
Forced : No
Text #3
ID : 6
Format : UTF-8
Codec ID : S_TEXT/UTF8
Codec ID/Info : UTF-8 Plain Text
Title : Eng SDH
Language : English
Default : No
Forced : No
Menu
00:00:00.000 : en:Chapter 1
00:05:55.897 : en:Chapter 2
00:09:38.494 : en:Chapter 3
00:15:22.922 : en:Chapter 4
00:20:45.452 : en:Chapter 5
00:25:21.978 : en:Chapter 6
00:29:07.620 : en:Chapter 7
00:36:20.720 : en:Chapter 8
00:42:15.658 : en:Chapter 9
00:47:47.114 : en:Chapter 10
00:50:10.090 : en:Chapter 11
00:54:15.043 : en:Chapter 12
01:01:00.740 : en:Chapter 13
01:06:31.988 : en:Chapter 14
01:15:19.431 : en:Chapter 15
01:20:22.275 : en:Chapter 16
01:35:50.327 : en:Chapter 17
x264 log
VIDEO ENCODING
x264 [info]: frame I:945 Avg QP:18.04 size: 85670
x264 [info]: frame P:41424 Avg QP:19.33 size: 39403
x264 [info]: frame B:95506 Avg QP:21.41 size: 16849
x264 [info]: consecutive B-frames: 7.5% 7.8% 14.5% 30.1% 14.7% 20.2% 2.5% 1.1% 0.3% 0.2% 0.1% 0.1% 0.1% 0.0% 0.1% 0.1% 0.4%
x264 [info]: kb/s:4614.94
x264 [total]: encoded 137875 frames, 4.98 fps, 4498.94 kb/s, duration 7:41:15.32
Скриншот c названием фильмаСкриншотыУбедительная просьба пожалуйста кто скачал не бросайте раздачу!!! Торрент файл перезалит,замена глав на оригинальные,пожалуйста перекачайте торрент файл!!
Скачать
[Профиль] [ЛС]
Показать сообщения:    
Ответить на тему

Текущее время: 18-Окт 15:45

Часовой пояс: UTC ± 0



Вы не можете начинать темы
Вы не можете отвечать на сообщения
Вы не можете редактировать свои сообщения
Вы не можете удалять свои сообщения
Вы не можете голосовать в опросах
Вы не можете прикреплять файлы к сообщениям
Вы не можете скачивать файлы