Перевозчик 3 / Transporter 3 (Оливье Мегатон / Olivier Megaton) [2008, Франция, Великобритания, Боевик, триллер, приключения, криминал, BDRip-AVC] Dub (BD) + AVO (А.Гаврилов) + AVO (Ю.Немахов) + Sub Rus, Eng + Original Eng

Ответить на тему
 
Автор Сообщение

Virtuoz ®

Пол: Мужской

Стаж: 1 год 9 месяца

Сообщений: 1375

Создавать темы 04-Янв-2017 22:53

[Цитировать]

Перевозчик 3Transporter 3«Правила те же... Кроме одного...»

Страна: Франция, Великобритания
Жанр: Боевик, триллер, приключения, криминал
Год выпуска: 2008
Продолжительность: 01:43:34
Перевод: Профессиональный (дублированный) Blu-ray
Перевод 2: Авторский (одноголосый закадровый) А.Гаврилов
Перевод 3: Авторский (одноголосый закадровый) Ю.Немахов
Cубтитры: русские,английские
Оригинальная аудиодорожка: английский
Режиссер: Оливье Мегатон / Olivier Megaton
В ролях: Джейсон Стэтхэм, Наталья Рудакова, Франсуа Берлеан, Роберт Нэппер, Ерун Краббе, Алекс Коболд, Дэвид Атракчи, Ян Сандберг, Эрик Эбони, Дэвид Камменос
Описание: После своих последних приключений в Майами, Фрэнк Мартин решил поменять работу «перевозчика» на спокойную и уединенную жизнь во французской Ривьере.
Но его планам не суждено было сбыться, когда к нему обратился бывший солдат из отряда «Дельта» Йонас Джонсон.
Он рассказал, что по заказу корпорации «Ecocorp», занимающейся переработкой и утилизацией отходов, похищена Валентина — дочь украинского министра по охране окружающей среды Леонида Фазилева — чтобы путем вымогательства получить официальное разрешение для утилизации ядовитых отходов в Украине.
Теперь задача героя — доставить Валентину через Европу в Одессу.
Чтобы обеспечить выполнение задания, Джонсон одевает Фрэнку и Валентине электронные браслеты, которые могут взорваться, если их обладатели удаляются на 20 метров от автомобиля.
Доп. информация:
Релиз группы:
Сохранены оригинальные главы как на Bluray
Качество видео: BDRip-AVC |Перевозчик 3 / Transporter 3 (2008) 1080p BD-Remux| HD club
Формат видео: MKV
Видео: 1136x484 (2:35:1), 23,976 fps, 4469 Кbps, 0.339 bit/pixe
Аудио: 48 kHz, AC3 Dolby Digital, 3/2 (L,C,R,l,r) + LFE ch, ~448.00 kbps avg | DUB
Аудио 2: 48 kHz, AC3 Dolby Digital, 3/2 (L,C,R,l,r) + LFE ch, ~448.00 kbps avg | ENG
Аудио 3: 48 kHz, AC3 Dolby Digital, 3/2 (L,C,R,l,r) + LFE ch, ~448.00 kbps avg | AVO отдельно
Аудио 4: 48 kHz, AC3 Dolby Digital, 3/2 (L,C,R,l,r) + LFE ch, ~448.00 kbps avg | AVO отдельно
Формат субтитров: softsub (SRT)
Доп. информация о субтитрах: отключаемые

MediaInfo
General
Unique ID : 252038882279026435490355374111700831910 (0xBD9CEC4D355984CAA3FAE0C68B944EA6)
Complete name : E:\Мои рипы\Перевозчик 3\Перевозчик 3 by_IVAN@190282.mkv
Format : Matroska
Format version : Version 4 / Version 2
File size : 3.95 GiB
Duration : 1h 43mn
Overall bit rate : 5 456 Kbps
Encoded date : UTC 2016-03-10 00:50:59
Writing application : mkvmerge v8.8.0 ('Wind at my back') 64bit
Writing library : libebml v1.3.3 + libmatroska v1.4.4
Attachements : cover.jpg
DURATION : 01:35:34.068000000
NUMBER_OF_FRAMES : 878
NUMBER_OF_BYTES : 29339
_STATISTICS_WRITING_APP : mkvmerge v8.8.0 ('Wind at my back') 64bit
_STATISTICS_WRITING_DATE_UT : 2016-03-10 00:50:59
_STATISTICS_TAGS : BPS DURATION NUMBER_OF_FRAMES NUMBER_OF_BYTES
Video
ID : 1
Format : AVC
Format/Info : Advanced Video Codec
Format profile : High@L4.1
Format settings, CABAC : Yes
Format settings, ReFrames : 14 frames
Codec ID : V_MPEG4/ISO/AVC
Duration : 1h 43mn
Bit rate : 4 452 Kbps
Width : 1 136 pixels
Height : 484 pixels
Display aspect ratio : 2.35:1
Frame rate mode : Constant
Frame rate : 23.976 fps
Color space : YUV
Chroma subsampling : 4:2:0
Bit depth : 8 bits
Scan type : Progressive
Bits/(Pixel*Frame) : 0.338
Stream size : 3.22 GiB (82%)
Writing library : x264 core 144 r2525kMod 40bb568
Encoding settings : cabac=1 / ref=14 / deblock=1:-3:-3 / analyse=0x3:0x113 / me=umh / subme=11 / psy=1 / fade_compensate=0.00 / psy_rd=1.00:0.15 / mixed_ref=1 / me_range=48 / chroma_me=1 / trellis=2 / 8x8dct=1 / cqm=0 / deadzone=21,11 / fast_pskip=0 / chroma_qp_offset=0 / threads=6 / lookahead_threads=6 / sliced_threads=0 / nr=0 / decimate=1 / interlaced=0 / bluray_compat=0 / constrained_intra=0 / fgo=0 / bframes=16 / b_pyramid=2 / b_adapt=2 / b_bias=0 / direct=1 / weightb=1 / open_gop=1 / weightp=2 / keyint=240 / keyint_min=23 / scenecut=40 / intra_refresh=0 / rc_lookahead=40 / rc=crf / mbtree=0 / crf=18.7000 / qcomp=0.60 / qpmin=0 / qpmax=69 / qpstep=4 / vbv_maxrate=50000 / vbv_bufsize=62500 / crf_max=0.0 / nal_hrd=none / filler=0 / ip_ratio=1.40 / pb_ratio=1.30 / aq=1:1.00
Default : Yes
Forced : No
Color range : Limited
Color primaries : BT.709
Transfer characteristics : BT.709
Matrix coefficients : BT.709
Audio #1
ID : 2
Format : AC-3
Format/Info : Audio Coding 3
Mode extension : CM (complete main)
Format settings, Endianness : Big
Codec ID : A_AC3
Duration : 1h 43mn
Bit rate mode : Constant
Bit rate : 448 Kbps
Channel(s) : 6 channels
Channel positions : Front: L C R, Side: L R, LFE
Sampling rate : 48.0 KHz
Compression mode : Lossy
Stream size : 332 MiB (8%)
Title : Dub
Default : Yes
Forced : No
Audio #2
ID : 3
Format : AC-3
Format/Info : Audio Coding 3
Mode extension : CM (complete main)
Format settings, Endianness : Big
Codec ID : A_AC3
Duration : 1h 43mn
Bit rate mode : Constant
Bit rate : 448 Kbps
Channel(s) : 6 channels
Channel positions : Front: L C R, Side: L R, LFE
Sampling rate : 48.0 KHz
Compression mode : Lossy
Stream size : 332 MiB (8%)
Title : Eng
Default : No
Forced : No
Text #1
ID : 4
Format : UTF-8
Codec ID : S_TEXT/UTF8
Codec ID/Info : UTF-8 Plain Text
Title : Rus
Default : Yes
Forced : No
Text #2
ID : 5
Format : UTF-8
Codec ID : S_TEXT/UTF8
Codec ID/Info : UTF-8 Plain Text
Title : Eng
Default : No
Forced : No
Menu
00:00:00.000 : en:Lower Level Breach
00:07:40.710 : en:Getting Away
00:16:40.874 : en:Environmental Business
00:24:08.989 : en:First Time for Everything
00:32:56.474 : en:Precious Cargo
00:42:38.889 : en:Unfinished Business
00:51:17.032 : en:We Have a Problem
01:00:12.317 : en:Long Term Commitment
01:10:46.825 : en:Detour
01:19:47.157 : en:Off Course
01:26:35.023 : en:You're Fired
01:35:51.871 : en:Exchanging Information
01:43:32.873 : en:Lighten Up
x264 log
VIDEO ENCODING
x264 [info]: frame I:1198 Avg QP:17.44 size: 76950
x264 [info]: frame P:39108 Avg QP:19.50 size: 40093
x264 [info]: frame B:108683 Avg QP:21.08 size: 17302
x264 [info]: consecutive B-frames: 5.1% 6.3% 12.0% 23.9% 14.7% 27.6% 5.9% 1.1% 1.5% 0.8% 0.5% 0.2% 0.2% 0.1% 0.0% 0.0% 0.1%
x264 [info]: kb/s:4558.06
x264 [total]: encoded 148989 frames, 4.06 fps, 4558.06 kb/s, duration 10:10:56.83
Скриншот c названием фильмаСкриншотыСравнения Убедительная просьба пожалуйста кто скачал не бросайте раздачу!!!
Торрент файл перезалит,замена глав на оригинальные,пожалуйста перекачайте торрент файл!!!!
Скачать
[Профиль] [ЛС]
Показать сообщения:    
Ответить на тему

Текущее время: 18-Окт 15:45

Часовой пояс: UTC ± 0



Вы не можете начинать темы
Вы не можете отвечать на сообщения
Вы не можете редактировать свои сообщения
Вы не можете удалять свои сообщения
Вы не можете голосовать в опросах
Вы не можете прикреплять файлы к сообщениям
Вы не можете скачивать файлы